#TITLE:I Hate This Park;
#SUBTITLE:[N]hoc[D] present;
#ARTIST:Pussycat Dolls;
#TITLETRANSLIT:;
#SUBTITLETRANSLIT:;
#ARTISTTRANSLIT:;
#CREDIT:;
#BANNER:bn.PNG;
#BACKGROUND:background.jpg;
#LYRICSPATH:;
#CDTITLE:kute.JPEG;
#MUSIC:I hate this part - The Pussycat Dolls.mp3;
#OFFSET:-0.226;
#SAMPLESTART:54.004;
#SAMPLELENGTH:12.000;
#SELECTABLE:YES;
#BPMS:0.000=111.570,18.000=111.566,19.000=111.570,37.000=111.566,38.000=111.570,112.000=27.893,114.000=27.893,115.000=27.893,116.000=55.785,122.000=111.919,123.000=111.834,124.000=111.373,125.000=111.354,126.000=114.130,127.000=109.479,128.000=111.237,131.000=111.251,132.000=111.237,134.000=116.246,135.000=111.237,138.000=111.251,139.000=111.237,142.000=113.689,143.000=111.237,145.000=111.251,146.000=111.237,149.000=111.251,150.000=113.684,151.000=111.237,152.000=111.251,153.000=111.237,156.000=111.251,157.000=111.237,160.000=111.251,161.000=111.237,163.000=113.684,164.000=113.689,165.000=111.237,167.000=111.251,168.000=111.237,171.000=111.251,172.000=111.237,175.000=111.251,176.000=111.237,178.000=111.251,179.000=111.237,180.000=116.241,181.000=111.237,182.000=111.251,183.000=111.237,186.000=111.251,187.000=111.237,189.000=113.689,190.000=113.684,191.000=111.237,193.000=111.251,194.000=111.237,196.000=111.251,197.000=111.237,200.000=116.246,201.000=111.237,204.000=111.251,205.000=111.237,208.000=111.251,209.000=111.237,211.000=111.251,212.000=111.237,214.000=113.684,215.000=111.251,216.000=111.237,218.000=111.251,219.000=111.237,222.000=116.246,223.000=108.893,224.000=113.684,225.000=111.251,226.000=111.237,229.000=111.251,230.000=111.237,232.000=113.684,233.000=111.251,234.000=111.237,237.000=111.251,238.000=111.237,240.000=113.684,241.000=111.251,242.000=111.237,244.000=111.251,245.000=111.237,248.000=116.246,249.000=111.237,250.000=55.622,251.000=55.619,252.000=111.237,253.000=111.251,254.000=111.237,256.000=111.251,257.000=111.237,260.000=111.251,261.000=113.684,262.000=111.237,263.000=111.251,264.000=111.237,267.000=111.251,268.000=113.684,269.000=111.237,271.000=111.251,272.000=111.237,275.000=111.251,276.000=111.237,278.000=111.251,279.000=111.237,282.000=111.251,283.000=111.237,286.000=111.251,287.000=111.237,289.000=118.921,290.000=111.237,293.000=111.251,294.000=114.968,295.000=111.237,296.000=111.251,297.000=111.237,300.000=111.251,301.000=111.237,303.000=111.251,304.000=111.237,307.000=111.251,308.000=111.237,310.000=111.251,311.000=117.563,312.000=111.237,314.000=111.251,315.000=111.237,317.000=111.251,318.000=113.684,319.000=111.237,321.000=110.057,322.000=113.684,323.000=111.237,324.000=111.251,325.000=111.237,328.000=113.689,329.000=110.057,330.000=111.237,331.000=111.251,332.000=111.237,334.000=113.684,335.000=111.237,337.000=111.251,338.000=111.237,340.000=111.251,341.000=111.237,342.000=114.968,343.000=111.237,345.000=111.251,346.000=111.237,347.000=111.041,348.000=13.875,349.000=13.888,350.000=14.185,352.000=22.297;
#STOPS:;
#BGCHANGES:;
// cache tags:
#FIRSTBEAT:0.000;
#LASTBEAT:352.750;
#SONGFILENAME:Songs/Music V.I.P ^_^/i hate this part/I hate this part - The Pussycat Dolls.sm;
#HASMUSIC:1;
#HASBANNER:1;
#MUSICLENGTH:219.585;
// end cache tags

//---------------dance-single - ----------------
#NOTES:
     dance-single:
     :
     Hard:
     17:
     1.000,1.000,1.000,0.182,1.000,1103.000,567.000,40.000,0.000,211.000:
1010
0100
0000
0000
0000
0000
0000
0000
0000
0000
0000
0000
0110
0000
0000
0000
0000
0000
0000
0000
0000
0000
0000
0000
0011
0000
0000
0000
0000
0000
1100
0000
0000
0000
0000
0000
1010
0000
0000
0000
0000
0000
0101
0000
0000
0000
0000
0000
,
0011
0000
0011
0000
0110
1100
0101
0011
,
1100
0010
0000
0000
0000
0000
0000
0000
0000
0000
0000
0000
0011
0000
0000
0000
0000
0000
0000
0000
0000
0000
0000
0000
0110
0000
0000
0000
0000
0000
0011
0000
0000
0000
0000
0000
0110
0000
0000
0000
0000
0000
1100
0000
0000
0000
0000
0000
,
0110
0001
0000
0000
0000
0000
0000
0000
0000
0000
0000
0000
0011
0000
0000
0000
0000
0000
0000
0000
0000
0000
0000
0000
0110
0000
0000
0000
0000
0000
1001
0000
0000
0000
0000
0000
0011
0000
0000
0000
0000
0000
1100
0000
0000
0000
0000
0000
,
0111
0000
1110
0000
0111
1001
0111
0110
,
1110
0000
1011
0000
1101
0011
1110
1100
,
1011
0000
1101
0000
0111
0110
1110
1001
,
0111
1000
0000
0000
0000
0000
0000
0000
0000
0000
0000
0000
1110
0001
0000
0000
0000
0000
0000
0000
0000
0000
0000
0000
1110
0000
0000
0000
0000
0000
0011
0000
0000
0000
0000
0000
1110
0000
0000
0000
0000
0000
0110
0000
0000
0000
0000
0000
,
1101
0010
0000
0000
0000
0000
0000
0000
0000
0000
0000
0000
0111
1000
0000
0000
0000
0000
0000
0000
0000
0000
0000
0000
1110
0000
0000
0000
0000
0000
0011
0000
0000
0000
0000
0000
1011
0000
0000
0000
0000
0000
1100
0000
0000
0000
0000
0000
,
1011
1000
0000
0000
0000
0000
0000
0000
0000
0000
0000
0000
0111
0100
0000
0000
0000
0000
0000
0000
0000
0000
0000
0000
1110
0000
0000
0000
0000
0000
0110
0000
0000
0000
0000
0000
0111
0000
0000
0000
0000
0000
0110
0000
0000
0000
0000
0000
,
1110
0010
0000
0000
0000
0000
0000
0000
0000
0000
0000
0000
0111
0100
0000
0000
0000
0000
0000
0000
0000
0000
0000
0000
1110
0000
0000
0000
0000
0000
0011
0000
0000
0000
0000
0000
1110
0000
0000
0000
0000
0000
0101
0000
0000
0000
0000
0000
,
1101
1000
0000
0000
0000
0000
0000
0000
0000
0000
0000
0000
1101
0001
0000
0000
0000
0000
0000
0000
0000
0000
0000
0000
1110
0000
0000
0000
0000
0000
1100
0000
0000
0000
0000
0000
1110
0000
0000
0000
0000
0000
1100
0000
0000
0000
0000
0000
,
0111
0000
0000
0000
0111
0000
0000
0000
0111
0000
0011
1100
0011
0000
1110
0000
,
1110
0000
0000
0000
0000
0000
0000
0000
0000
0000
0000
0000
1110
0000
0000
0000
0000
0000
0000
0000
0000
0000
0000
0000
1100
0010
0000
0000
0000
0000
0110
1000
0000
0000
0000
0000
0011
0100
0000
0000
0000
0000
1100
0010
0000
0000
0000
0000
,
0101
0010
0000
0000
0000
0000
0000
0000
0000
0000
0000
0000
1100
0010
0000
0000
0000
0000
0110
0001
0000
0000
0000
0000
0011
0100
0000
0000
0000
0000
1100
0010
0000
0000
0000
0000
0101
0010
0000
0000
0000
0000
1100
0010
0000
0000
0000
0000
,
0101
1000
0000
0000
0000
0000
0000
0000
0000
0000
0000
0000
1010
0100
0000
0000
0000
0000
0011
1000
0000
0000
0000
0000
1100
0001
0000
0000
0000
0000
0110
0100
0000
0000
0000
0000
0011
0001
0000
0000
0000
0000
1100
0010
0000
0000
0000
0000
,
0101
0010
0000
0000
0000
0000
0000
0000
0000
0000
0000
0000
1101
0010
0000
0000
0000
0000
0000
0000
0000
0000
0000
0000
1110
0000
0000
0000
0000
0000
0011
0000
0000
1010
0000
0000
0101
0000
0000
0000
0000
0000
1110
0000
0000
0000
0000
0000
,
0101
1010
0000
0000
0000
0000
0000
0000
0000
0000
0000
0000
1110
0101
0000
0000
0000
0000
0000
0000
0000
0000
0000
0000
0110
1001
0000
0000
0000
0000
1100
0011
0000
0000
0000
0000
0011
1100
0000
0000
0000
0000
0110
1100
0000
0000
0000
0000
,
0110
0011
0000
0000
0000
0000
0000
0000
0000
0000
0000
0000
1100
0011
0000
0000
0000
0000
0011
1100
0000
0000
0000
0000
0110
1001
0000
0000
0000
0000
1001
0110
0000
0000
0000
0000
1010
0101
0000
0000
0000
0000
0101
1010
0000
0000
0000
0000
,
1010
0011
0000
0101
0000
0000
1010
0000
0000
0101
0000
0000
1010
0000
0000
0101
0000
0000
1010
0000
0000
0101
0000
0000
1010
0000
0000
0101
0000
0000
1010
0000
0000
0101
0000
0000
1010
0000
0000
0000
0000
0000
0000
0000
0000
0000
0000
0000
,
1111
0100
0010
0000
1111
0010
0100
0000
1100
0000
0110
1001
0110
0000
1100
0000
,
0111
0000
0000
0010
0000
0000
0100
0000
0000
0000
0000
0000
1110
0000
0000
0100
0000
0000
0010
0000
0000
0000
0000
0000
0110
0001
0000
0000
0000
0000
1100
0010
0000
0000
0000
0000
0101
1000
0000
0000
0000
0000
0110
1000
0000
0000
0000
0000
,
0101
0010
0000
0000
0000
0000
0000
0000
0000
0000
0000
0000
1100
0000
0000
0000
0000
0000
0000
0000
0000
0000
0000
0000
1110
0101
0000
0000
0000
0000
0101
1010
0000
0000
0000
0000
1110
0110
0000
0000
0000
0000
0011
0000
0000
0000
0000
0000
,
1110
0101
0000
0000
0000
0000
0010
0000
0000
0000
0000
0000
0110
0010
0000
0000
0000
0000
0100
0000
0000
0000
0000
0000
1100
0100
0000
0000
0000
0000
0100
0100
0000
0000
0000
0000
0110
0010
0000
0000
0000
0000
0010
0010
0000
0000
0000
0000
,
0011
0001
0000
0000
0000
0000
0001
0000
0000
0000
0000
0000
0110
0000
0000
0000
0000
0000
0010
0000
0000
0000
0000
0000
1110
0010
0000
0000
0000
0000
0011
0000
0000
1100
0000
0000
0101
0000
0000
0000
0000
0000
1110
0000
0000
0000
0000
0000
,
1111
0000
0000
0000
1111
0000
0000
0000
1100
0000
0110
1001
0110
0000
1110
0000
,
0111
0000
1110
0000
0111
1110
1101
1101
,
1000
0100
0010
0001
0010
0100
1000
0000
0000
0001
0010
0100
1000
0100
0010
0001
0010
0100
1000
0001
0010
0100
0010
1000
,
0100
0000
1100
0000
0110
1100
1001
0011
1110
0000
1110
0000
1110
0111
0111
1110
0111
0000
1110
0000
1101
0111
1011
0111
1011
0000
1110
0000
0111
1110
1110
0111
,
1011
0100
0010
0000
1010
0100
0010
0000
1001
0010
0100
1010
0100
0010
0101
0010
1100
0000
0000
0000
1110
0000
0000
0000
1010
0100
0010
0101
0010
0100
1010
0100
,
1011
0000
0000
0000
1110
0000
0000
0000
0110
1000
0100
1010
0001
0010
0101
0010
1101
0000
0000
0000
0000
0000
0000
0000
1111
0000
0000
0000
0000
0000
0000
0000
,
2020
0000
0000
0000
0000
0000
0000
0000
3232
0000
0000
0000
0000
0000
0000
0000
2313
0000
0000
0000
0000
0000
0000
0000
3022
0000
0000
0000
0000
0000
0000
0000
0233
0000
0000
0000
0000
0000
0000
0000
1300
0100
0010
0001
0000
0010
0100
1000
0001
0000
0000
0000
0000
0000
0000
0000
0000
0000
0000
0000
0000
0000
0000
0000
,
0110
0000
0000
0000
0000
0000
0000
0000
0000
0000
0000
0000
0000
0000
0000
0000
0000
0000
0000
0000
0000
0000
0000
0000
0100
0000
0000
0000
0000
0000
0000
0000
0000
0000
0000
0000
0000
0000
0000
0000
0000
0000
0000
0000
0000
0000
0000
0000
1100
0000
0000
0010
0000
0000
0001
0000
0000
0100
0000
0000
0010
0000
0000
1000
0000
0000
0100
0000
0000
0000
0000
0000
0010
0000
0000
0000
0000
0000
0000
0000
0000
0000
0000
0000
0000
0000
0000
0000
0000
0000
0000
0000
0000
0000
0000
0000
0110
0000
0000
0000
0000
0000
0000
0000
0000
0000
0000
0000
0000
0000
0000
0000
0000
0000
0000
0000
0000
0000
0000
0000
0000
0000
0000
0000
0000
0000
0000
0000
0000
0000
0000
0000
0000
0000
0000
0000
0000
0000
0000
0000
0000
0000
0000
0000
0101
0000
0000
0000
0010
0000
0000
0000
0000
0000
0000
0000
0000
0000
0000
0000
0000
0000
0000
0000
0000
0000
0000
0000
0110
0000
0000
0000
1000
0000
0000
0000
0000
0000
0000
0000
0000
0000
0000
0000
0000
0000
0000
0000
0000
0000
0000
0000
,
0101
0000
0000
0000
0010
0000
0000
0000
0000
0000
0000
0000
0000
0000
0000
0000
0000
0000
0000
0000
0000
0000
0000
0000
1100
0000
0000
0000
0010
0000
0000
0000
0000
0000
0000
0000
0000
0000
0000
0000
0000
0000
0000
0000
0000
0000
0000
0000
0101
0000
0000
0010
0000
0000
1000
0000
0000
0100
0000
0000
0001
0000
0000
0010
0000
0000
1000
0000
0000
0000
0000
0000
0100
0000
0000
0000
0000
0000
0000
0000
0000
0000
0000
0000
0000
0000
0000
0000
0000
0000
0000
0000
0000
0000
0000
0000
1101
0000
0000
0000
0000
0000
0000
0000
0000
0000
0000
0000
0000
0000
0000
0000
0000
0000
0000
0000
0000
0000
0000
0000
0000
0000
0000
0000
0000
0000
0000
0000
0000
0000
0000
0000
0000
0000
0000
0000
0000
0000
0000
0000
0000
0000
0000
0000
1110
0000
0000
0000
0000
0000
0000
0000
0000
0000
0000
0000
0000
0000
0000
0000
0000
0000
0000
0000
0000
0000
0000
0000
0000
0000
0000
0000
0000
0000
0000
0000
0000
0000
0000
0000
0000
0000
0000
0000
0000
0000
0000
0000
0000
0000
0000
0000
,
1100
0000
0000
0000
0010
0000
0000
0000
0000
0000
0000
0000
0000
0000
0000
0000
0000
0000
0000
0000
0000
0000
0000
0000
0101
0000
0000
0000
0010
0000
0000
0000
0000
0000
0000
0000
0000
0000
0000
0000
0000
0000
0000
0000
0000
0000
0000
0000
1100
0000
0000
0010
0000
0000
0001
0000
0000
0100
0000
0000
1000
0000
0000
0010
0000
0000
0001
0000
0000
0000
0000
0000
1000
0000
0000
0000
0000
0000
0000
0000
0000
0000
0000
0000
0000
0000
0000
0000
0000
0000
0000
0000
0000
0000
0000
0000
0111
0000
0000
0000
0000
0000
0000
0000
0000
0000
0000
0000
0000
0000
0000
0000
0000
0000
0000
0000
0000
0000
0000
0000
0000
0000
0000
0000
0000
0000
0000
0000
0000
0000
0000
0000
0000
0000
0000
0000
0000
0000
0000
0000
0000
0000
0000
0000
1110
0000
0000
0000
0000
0000
0000
0000
0000
0000
0000
0000
0000
0000
0000
0000
0000
0000
0000
0000
0000
0000
0000
0000
0000
0000
0000
0000
0000
0000
0000
0000
0000
0000
0000
0000
0000
0000
0000
0000
0000
0000
0000
0000
0000
0000
0000
0000
,
0110
0000
0000
0000
0010
0000
0000
0000
0000
0000
0000
0000
0000
0000
0000
0000
0000
0000
0000
0000
0000
0000
0000
0000
1100
0000
0000
0000
0001
0000
0000
0000
0000
0000
0000
0000
0000
0000
0000
0000
0000
0000
0000
0000
0000
0000
0000
0000
1010
0000
0000
0001
0000
0000
0100
0000
0000
0010
0000
0000
1000
0000
0000
0100
0000
0000
0001
0000
0000
0000
0000
0000
0010
0000
0000
0000
0000
0000
0000
0000
0000
0000
0000
0000
0000
0000
0000
0000
0000
0000
0000
0000
0000
0000
0000
0000
0111
0000
0000
0000
0000
0000
0000
0000
0000
0000
0000
0000
0000
0000
0000
0000
0000
0000
0000
0000
0000
0000
0000
0000
0000
0000
0000
0000
0000
0000
0000
0000
0000
0000
0000
0000
0000
0000
0000
0000
0000
0000
0000
0000
0000
0000
0000
0000
1110
0000
0000
0000
0000
0000
0000
0000
0000
0000
0000
0000
0000
0000
0000
0000
0000
0000
0000
0000
0000
0000
0000
0000
0000
0000
0000
0000
0000
0000
0000
0000
0000
0000
0000
0000
0000
0000
0000
0000
0000
0000
0000
0000
0000
0000
0000
0000
,
1110
0000
0000
0000
0001
0000
0000
0000
0000
0000
0000
0000
0000
0000
0000
0000
0000
0000
0000
0000
0000
0000
0000
0000
0111
0000
0000
0000
1000
0000
0000
0000
0000
0000
0000
0000
0000
0000
0000
0000
0000
0000
0000
0000
0000
0000
0000
0000
1010
0000
0000
0100
0000
0000
1000
0000
0000
0001
0000
0000
0010
0000
0000
0100
0000
0000
0001
0000
0000
0000
0000
0000
1000
0000
0000
0000
0000
0000
0000
0000
0000
0000
0000
0000
0000
0000
0000
0000
0000
0000
0000
0000
0000
0000
0000
0000
1101
0000
0000
0000
0000
0000
0000
0000
0000
0000
0000
0000
0000
0000
0000
0000
0000
0000
0000
0000
0000
0000
0000
0000
0000
0000
0000
0000
0000
0000
0000
0000
0000
0000
0000
0000
0000
0000
0000
0000
0000
0000
0000
0000
0000
0000
0000
0000
1011
0000
0000
0000
0000
0000
0000
0000
0000
0000
0000
0000
0000
0000
0000
0000
0000
0000
0000
0000
0000
0000
0000
0000
0000
0000
0000
0000
0000
0000
0000
0000
0000
0000
0000
0000
0000
0000
0000
0000
0000
0000
0000
0000
0000
0000
0000
0000
,
0111
0000
0000
0000
1100
0000
0000
0000
0000
0000
0000
0000
0000
0000
0000
0000
0000
0000
0000
0000
0000
0000
0000
0000
1110
0000
0000
0000
0001
0000
0000
0000
0000
0000
0000
0000
0000
0000
0000
0000
0000
0000
0000
0000
0000
0000
0000
0000
0011
0000
0000
0100
0000
0000
1000
0000
0000
0010
0000
0000
0001
0000
0000
0100
0000
0000
0010
0000
0000
0000
0000
0000
0100
0000
0000
0000
0000
0000
0000
0000
0000
0000
0000
0000
0000
0000
0000
0000
0000
0000
0000
0000
0000
0000
0000
0000
1110
0000
0000
0000
0001
0000
0000
0000
0010
0000
0000
0000
0000
0000
0000
0000
0000
0000
0000
0000
0000
0000
0000
0000
0000
0000
0000
0000
0000
0000
0000
0000
0000
0000
0000
0000
0000
0000
0000
0000
0000
0000
0000
0000
0000
0000
0000
0000
1110
0000
0000
0000
0001
0000
0000
0000
0010
0000
0000
0000
0000
0000
0000
0000
0000
0000
0000
0000
0000
0000
0000
0000
0000
0000
0000
0000
0000
0000
0000
0000
0000
0000
0000
0000
0000
0000
0000
0000
0000
0000
0000
0000
1000
0000
0000
0000
,
0111
0000
0000
0000
0000
0000
0000
0000
0000
0000
0000
0000
0000
0000
0000
0000
0000
0000
0000
0000
1000
0000
0000
0000
0110
0000
0000
0000
0001
0000
0000
0000
0000
0000
0000
0000
0000
0000
0000
0000
0000
0000
0000
0000
0000
0000
0000
0000
0110
0000
0000
1000
0000
0000
0001
0000
0000
0010
0000
0000
1000
0000
0000
0100
0000
0000
0001
0000
0000
0000
0000
0000
0010
0000
0000
0000
0000
0000
0000
0000
0000
0000
0000
0000
0000
0000
0000
0000
0000
0000
0000
0000
0000
0000
0000
0000
1110
0000
0000
0000
0001
0000
0000
0000
0010
0000
0000
0000
0000
0000
0000
0000
0000
0000
0000
0000
0000
0000
0000
0000
0000
0000
0000
0000
0000
0000
0000
0000
0000
0000
0000
0000
0000
0000
0000
0000
0000
0000
0000
0000
0000
0000
0000
0000
0111
0000
0000
0000
1000
0000
0000
0000
0100
0000
0000
0000
0000
0000
0000
0000
0000
0000
0000
0000
0000
0000
0000
0000
0000
0000
0000
0000
0000
0000
0000
0000
0000
0000
0000
0000
0000
0000
0000
0000
0000
0000
0000
0000
1000
0000
0000
0000
,
0110
0001
0000
0000
0000
0010
0101
1000
0000
0000
0000
0000
0110
0000
0000
0000
0000
0000
2112
0000
0000
0000
0000
0000
0110
0000
0000
0000
0000
0000
0000
0000
0000
0000
0000
0000
0110
0000
0000
0000
0000
0000
0000
0000
0000
0000
0000
0000
,
3113
0110
1001
1221
1001
0000
1001
0000
,
1331
1001
1001
1001
2112
0000
0110
0110
,
3113
0110
0111
2110
0110
3201
0011
2310
,
3210
0000
0000
0000
0000
0000
1320
0000
0000
0000
0000
0000
0132
0000
0000
0000
0000
0000
1223
0000
0000
0000
0000
0000
1001
1001
0000
0000
0000
0000
0000
0000
0000
0000
0000
0000
1001
0000
0000
0000
0000
0000
0000
0000
0000
0000
0000
0000
,
1001
0000
0000
0000
0000
0000
1001
0000
0000
1001
0000
0000
1001
0000
0000
0000
0000
0330
2112
0000
0000
0000
0000
0000
0110
0000
0000
0000
0000
0000
0000
0000
0000
0000
0000
0000
0110
0000
0000
0000
0000
0000
0000
0000
0000
0000
0000
0000
,
0110
0110
3113
1221
1001
1001
1001
1001
,
1331
0000
0110
0000
1100
0000
0110
0000
0012
0100
2013
0100
0010
0001
3210
0001
,
0320
0001
0230
0001
1310
0000
0000
0000
1111
0001
0010
0000
1110
1000
0100
0000
,
0101
0010
0100
0010
1100
0010
0001
0010
1100
0000
0000
0000
1110
0000
0000
0000
,
0111
1000
0100
0010
0101
0010
0100
1000
0110
0000
0000
0000
1110
0000
0000
0000
,
0111
1000
0100
0010
1100
0010
0100
1000
0011
0100
0010
0000
0110
0001
0010
0000
,
1010
0100
0010
0001
0110
0001
0010
0100
1001
0010
0100
0000
0110
1000
0100
0000
,
1101
0010
0100
0010
1101
0010
0100
0010
1101
0000
0000
0000
1110
0000
0000
0000
,
1110
0101
0110
1100
0110
0011
0110
1100
0110
0100
0100
0000
1100
0010
0010
0000
,
0011
0000
0000
0110
0000
0000
1100
0000
0000
0110
0000
0000
0011
0000
0000
0110
0000
0000
1001
0000
0000
0110
0000
0000
1100
0000
0001
0000
0100
0000
0001
0000
0010
0000
0000
0000
0101
0000
1000
0000
0001
0000
0100
0000
0010
0000
0000
0000
,
0101
0010
0100
1010
0001
0010
0101
0000
0000
0000
0000
0000
1110
0000
0000
0000
0000
0000
0111
0000
0000
0000
0000
0000
,
1100
0010
0100
0010
0101
0010
0100
0010
1100
0000
0000
0000
1110
0000
0000
0000
,
0101
0010
0100
1000
0101
0010
0100
1000
0101
0000
0000
0000
1010
0000
0000
0000
,
1010
0100
0010
0001
1010
0100
0010
0001
1010
0000
0000
0000
0110
0000
0000
0000
,
0101
0010
0100
0010
0101
1000
0100
1000
0110
0000
0000
0000
1010
0000
0000
0000
,
1010
0100
0010
0001
1010
0001
0010
0100
0011
0000
0000
0000
0101
0000
0000
0000
,
0110
0001
0100
0010
0101
0010
0100
1000
0101
0000
0000
0000
1110
0000
0000
0000
,
0110
1000
0100
0010
0101
0010
0100
1000
0120
0000
2130
0000
3120
2130
3012
0123
,
1031
0100
1100
0100
0110
0010
0101
0001
,
0011
0010
0110
0100
1100
1000
1010
0010
,
1100
0010
0001
0100
0010
1000
0100
0000
0000
0000
0000
0000
0011
0000
0000
0000
0000
0000
0001
0000
0000
0000
0000
0000
0011
0000
0000
0000
0000
0000
0001
0000
0000
0000
0000
0000
0011
0000
0000
0000
0000
0000
0010
0000
0000
0000
0000
0000
,
0110
0100
1100
1000
1001
0001
0011
0010
,
1010
1000
1100
0010
0110
0100
1100
1000
,
1010
0010
1100
0010
0011
0001
0011
0001
,
0011
0010
0110
0100
1100
1000
1001
0001
,
0011
0000
0000
0000
0000
0000
0010
0000
0000
0000
0000
0000
1010
0000
0000
0000
0000
0000
1000
0000
0000
0000
0000
0000
1100
0000
0000
0000
0000
0000
0100
0000
0000
0000
0000
0000
0110
0001
0010
0100
1000
0100
0010
0000
0000
0000
0000
0000
,
1001
0000
0100
0000
0001
0000
0000
0000
0000
0000
0000
0000
0101
0000
0010
0000
0100
0000
0020
0000
0000
0000
0000
0000
1100
0000
0000
0001
0000
0000
0001
0000
0000
0100
0000
0000
1100
0000
0000
0001
0000
0000
0100
0000
0000
1000
0000
0000
,
0101
0000
1000
0000
0100
0000
0000
0000
0000
0000
0000
0000
1100
0000
0001
0000
0100
0000
0000
0000
0000
0000
0000
0000
0101
0000
0000
1000
0000
0000
0100
0000
0000
1000
0000
0000
0101
0000
0000
1000
0000
0000
0001
0000
0000
1000
0000
0000
,
1100
0000
0001
0000
0100
0000
0000
0000
0000
0000
0000
0000
0101
0000
1000
0000
0100
0000
0000
0000
0000
0000
0000
0000
1130
0000
0000
0010
0000
0000
0100
0000
0000
0010
0000
0000
1100
0000
0000
0010
0000
0000
0001
0000
0000
0010
0000
0000
,
1100
0000
0010
0000
0001
0000
0010
0000
0000
0000
0000
0000
0101
0000
0010
0000
0100
0000
0010
0000
0000
0000
0000
0000
1100
0000
0000
0100
0000
0000
0110
0000
0000
0100
0000
0000
0110
0000
0000
0100
0000
0000
0110
0000
0000
0010
0000
0000
,
1010
0000
0100
0000
0010
0000
0001
0000
0000
0000
0000
0000
0101
0000
0010
0000
0100
0000
1000
0000
0000
0000
0000
0000
0110
0000
0000
0010
0000
0000
0110
0000
0000
0010
0000
0000
0110
0000
0000
0010
0000
0000
0110
0000
0000
0010
0000
0000
,
1111
0000
0010
0000
0100
0000
0010
0000
0000
0000
0000
0000
1111
0000
0100
0000
0010
0000
0100
0000
0000
0000
0000
0000
0101
0000
0000
0001
0000
0000
0011
0000
0000
0001
0000
0000
0101
0000
0000
0001
0000
0000
0011
0000
0000
0001
0000
0000
,
1101
0000
0100
0000
0100
0000
0100
0000
0000
0000
0000
0000
1110
0000
0010
0000
0010
0000
0010
0000
0000
0000
0000
0000
0101
0000
0000
0001
0000
0000
1001
0000
0000
0001
0000
0000
0011
0000
0000
0001
0000
0000
0101
0000
0000
0001
0000
0000
,
1001
0110
1110
0011
1101
1100
0111
0000
,
1110
0001
0010
0100
0000
0000
1110
0001
0010
0100
0000
0000
1110
0001
0010
0100
0010
0001
1110
0001
0010
0100
0010
0001
,
1110
0001
0010
0100
0000
0000
0111
1000
0100
0010
0000
0000
0111
1000
0100
0010
0100
1000
0111
1000
0100
0010
0100
1000
,
0111
1000
0100
0010
0000
0000
1101
0010
0100
1000
0000
0000
1101
0010
0100
1000
0100
0010
1101
0010
0100
1000
0100
0010
,
1101
0010
0100
1000
0000
0000
1011
0100
0010
0001
0000
0000
1011
0100
0010
0001
0010
0100
1011
0100
0010
0001
0010
0100
,
1011
0100
0010
0001
0000
0000
1011
0100
0010
0001
0000
0000
0111
1000
0001
0010
0100
1000
0111
1000
0001
0010
0100
1000
,
0111
1000
0001
0010
0000
0000
0111
1000
0001
0010
0000
0000
0111
1000
0001
0010
0100
0010
0101
0010
0100
1000
0100
0010
,
0101
0010
0100
1000
0000
0000
1101
0010
0100
0001
0000
0000
1011
0100
0010
0001
1010
0100
0010
0001
1010
0100
0010
0001
,
1010
0100
0010
0001
1010
0100
0010
0001
1010
0000
0010
0001
1010
0100
0010
0001
1010
0100
0011
0100
1000
0100
0010
1000
,
0101
0000
0110
0000
1100
0110
0011
0110
1100
0000
0110
0000
0011
1100
0011
0110
1001
0000
1100
0000
1010
0101
1100
0011
0110
0000
1001
0000
1100
0011
0110
1001
1100
0000
0011
0000
1100
0011
0110
1001
0110
0000
1100
0000
0011
0110
1100
0011
1001
0000
0110
0000
1100
0011
1100
0011
0110
0000
1100
0000
0011
0000
1100
0110
,
0022
0000
0000
0033
0000
0000
0000
0000
0000
0000
0000
0000
0000
0000
0000
0000
;
